<?xml version="1.0" standalone="no"?>
<!DOCTYPE svg PUBLIC "-//W3C//DTD SVG 1.1//EN" "http://www.w3.org/Graphics/SVG/1.1/DTD/svg11.dtd" >
<svg xmlns="http://www.w3.org/2000/svg">
<metadata>Generated by IcoMoon</metadata>
<defs>
<font id="icomoon" horiz-adv-x="1024">
<font-face units-per-em="1024" ascent="960" descent="-64" />
<missing-glyph horiz-adv-x="1024" />
<glyph unicode="&#x20;" horiz-adv-x="512" d="" />
<glyph unicode="&#xe900;" glyph-name="contact" d="M794.88 540.48c0.479 6.102 0.752 13.214 0.752 20.389 0 101.505-54.637 190.249-136.106 238.427l-1.286 0.704c-42.278 29.016-94.556 46.34-150.88 46.34s-108.602-17.324-151.797-46.933l0.917 0.594c-81.843-52.104-135.353-142.355-135.353-245.104 0-4.733 0.114-9.439 0.338-14.116l-0.025 0.66 34.56-0.64c67.52-1.6 72-6.080 72-75.2 0-101.12 0-202.56 0-303.68-0.369-2.772-0.579-5.978-0.579-9.233 0-37.532 27.971-68.531 64.205-73.287l0.374-0.040h6.080c21.76-4.8 39.040-19.84 32-39.36s-30.4-24.32-45.76-23.040c-55.092 12.338-99.876 48.506-123.688 96.859l-0.472 1.061c-7.766 1.767-16.787 2.918-26.027 3.195l-0.213 0.005c-97.697 2.040-179.007 69.813-201.613 160.78l-0.307 1.46c-22.4 91.84 13.44 170.88 101.44 231.68 11.996 10.309 19.899 25.087 21.108 41.722l0.012 0.198c14.080 185.28 125.76 316.8 298.56 349.12 16.795 2.861 36.142 4.495 55.871 4.495 172.879 0 316.436-125.542 344.479-290.432l0.29-2.063s0-2.88 0-4.48c2.377-26.478 5.996-50.186 10.948-73.402l-0.708 3.962c3.386-12.45 10.761-22.838 20.641-29.971l0.159-0.109c97.6-64 132.8-162.88 91.84-261.76-45.44-109.76-150.72-139.84-249.28-130.24-18.281 6.492-31.955 21.755-36.092 40.591l-0.068 0.369c-2.88 113.28-1.92 226.88 0 340.16 0 28.48 17.92 40.32 44.16 41.6 17.92-0.64 36.16-1.28 59.52-1.28zM791.68 188.48c76.623 1.25 138.258 63.659 138.258 140.462 0 0.794-0.007 1.586-0.020 2.377l0.002-0.119v3.2c-2.815 74.409-63.492 133.744-138.176 134.4h-0.064zM192 195.84v264.32c-52.16 0-104-70.72-103.68-131.52-0.014-0.713-0.022-1.554-0.022-2.396 0-63.152 43.87-116.058 102.798-129.905l0.904-0.179zM224 469.12v-280.64c26.24-8.64 40.64-3.2 40.64 25.6q0 114.56 0 229.44c0 29.12-14.4 34.56-40.64 25.6zM541.12 41.92c0-16.613-13.467-30.080-30.080-30.080s-30.080 13.467-30.080 30.080c0 16.613 13.467 30.080 30.080 30.080s30.080-13.467 30.080-30.080z" />
<glyph unicode="&#xe901;" glyph-name="enter" d="M910.080 600.64c-30.864 71.679-87.549 127.325-158.057 156.099l-1.943 0.701c-32.107 13.101-69.362 20.705-108.392 20.705-123.074 0-228.49-75.604-272.338-182.901l-0.71-1.963c-0.599-1.369-0.947-2.964-0.947-4.64s0.348-3.271 0.977-4.716l-0.030 0.076c1.933-2.519 4.935-4.134 8.316-4.16h35.844c3.951 0.019 7.355 2.345 8.934 5.699l0.026 0.061c39.444 82.688 122.241 138.876 218.197 139.2h0.043c125.138-9.421 223.101-113.27 223.101-240s-97.964-230.579-222.295-239.951l-0.806-0.049c-0.229-0.001-0.501-0.001-0.772-0.001-66.118 0-125.95 26.916-169.135 70.388l-0.013 0.013c-13.29 13.401-25.122 28.285-35.215 44.372l-0.625 1.068c-1.691 2.89-4.779 4.8-8.314 4.8-0.002 0-0.004 0-0.006 0h-37.76c-0.002 0-0.004 0-0.006 0-3.535 0-6.623-1.91-8.289-4.755l-0.025-0.045c-0.84-1.369-1.338-3.026-1.338-4.8s0.498-3.431 1.361-4.841l-0.023 0.041c14.527-28.036 32.24-52.081 53.12-72.96v0c53.048-52.78 126.19-85.407 206.952-85.407 162.062 0 293.44 131.378 293.44 293.44 0 41.367-8.56 80.734-24.004 116.428l0.732-1.901zM522.24 324.48c0-0.026 0-0.057 0-0.087 0-12.040 6.65-22.527 16.477-27.989l0.163-0.083c4.417-2.549 9.701-4.083 15.338-4.16h0.022c6.202 0.147 11.935 2.036 16.762 5.195l-0.122-0.075 234.88 147.84c4.082 2.502 7.418 5.838 9.847 9.792l0.073 0.128c3.122 4.854 4.976 10.779 4.976 17.138 0 2.547-0.298 5.024-0.86 7.399l0.043-0.217c-1.988 8.397-7.072 15.36-13.952 19.763l-0.128 0.077-234.24 147.84c-4.791 3.014-10.617 4.803-16.861 4.803-0.147 0-0.294-0.001-0.441-0.003h0.022c-17.673 0-32-14.327-32-32v0-115.84h-413.76c-8.75-0.398-16.529-4.252-22.061-10.219l-0.019-0.021c-5.365-5.709-8.661-13.416-8.661-21.892 0-0.404 0.007-0.805 0.022-1.205l-0.002 0.058c0.487-8.792 4.452-16.573 10.532-22.055l0.028-0.025c5.707-5.355 13.407-8.644 21.875-8.644 0.185 0 0.369 0.002 0.553 0.005h411.492zM586.24 382.4v179.52l142.72-89.92z" />
<glyph unicode="&#xe902;" glyph-name="top" d="M512 576l-363.2-362.24c-12.349-12.142-29.299-19.638-48-19.638s-35.651 7.496-48.010 19.648l0.010-0.009c-11.922 12.447-19.261 29.366-19.261 48s7.339 35.553 19.285 48.025l-0.024-0.025 410.24 412.8c12.445 12.726 29.789 20.618 48.976 20.618 18.224 0 34.786-7.119 47.055-18.727l-0.032 0.030 412.8-413.12c17.479-12.637 28.72-32.966 28.72-55.92 0-37.997-30.803-68.8-68.8-68.8-22.954 0-43.283 11.241-55.781 28.518l-0.139 0.201z" />
<glyph unicode="&#xe903;" glyph-name="close" d="M602.88 448l146.88 146.56c10.234 11.301 16.498 26.364 16.498 42.89 0 35.346-28.654 64-64 64-16.606 0-31.734-6.324-43.109-16.696l0.051 0.045-147.2-146.56-146.24 146.56c-11.588 11.588-27.597 18.756-45.28 18.756-35.366 0-64.036-28.67-64.036-64.036 0-17.683 7.167-33.692 18.756-45.28v0l146.56-146.24-146.56-147.2c-11.588-11.588-18.756-27.597-18.756-45.28 0-35.366 28.67-64.036 64.036-64.036 17.683 0 33.692 7.167 45.28 18.756v0l146.24 146.88 146.88-146.88c11.301-10.234 26.364-16.498 42.89-16.498 35.346 0 64 28.654 64 64 0 16.606-6.324 31.734-16.696 43.109l0.045-0.051z" />
<glyph unicode="&#xe904;" glyph-name="all" d="M896 553.92l-384 217.28-374.72-217.6 391.36-210.56 367.36 210.56zM947.2 553.6l-416-250.88-448 250.88 428.48 256zM528.32 218.56v0l-456.64 259.84h61.12l395.2-222.4 368 222.4h59.2l-426.88-259.52zM528.32 122.88v0l-452.48 261.12h56.96l395.52-221.76 367.68 221.76h53.12z" />
<glyph unicode="&#xe905;" glyph-name="right" d="M619.52 458.56l-339.52 339.2c-11.407 11.552-18.452 27.433-18.452 44.96s7.045 33.408 18.459 44.967l-0.007-0.007c11.584 11.597 27.594 18.77 45.28 18.77s33.696-7.174 45.279-18.77l384.001-384.001c11.549-11.576 18.691-27.554 18.691-45.2 0-16.332-6.118-31.236-16.187-42.544l0.056 0.064-385.92-387.52c-11.617-11.656-27.686-18.869-45.44-18.869-35.428 0-64.149 28.72-64.149 64.149 0 17.674 7.148 33.679 18.711 45.282l-0.002-0.002z" />
<glyph unicode="&#xe906;" glyph-name="left" d="M749.44 119.040c11.561-11.601 18.709-27.606 18.709-45.28 0-35.428-28.72-64.149-64.149-64.149-17.754 0-33.823 7.212-45.438 18.867l-386.242 387.522c-10.378 11.336-16.737 26.502-16.737 43.153 0 17.629 7.128 33.594 18.659 45.169l383.998 383.998c11.584 11.597 27.594 18.77 45.28 18.77s33.696-7.174 45.279-18.77l0.001-0.001c11.407-11.552 18.452-27.433 18.452-44.96s-7.045-33.408-18.459-44.967l-339.193-339.193z" />
<glyph unicode="&#xe907;" glyph-name="love" d="M720 324.48l112 52.48 33.6 15.36c6.608 3.451 14.433 5.476 22.731 5.476 19.542 0 36.462-11.229 44.658-27.588l0.131-0.288c4.194-7.263 6.668-15.975 6.668-25.266 0-18.96-10.306-35.513-25.621-44.363l-0.247-0.132c-32-18.24-64-34.88-96-52.16l-198.72-108.48c-16.722-8.375-36.433-13.277-57.29-13.277-18.988 0-37.026 4.063-53.294 11.368l0.824-0.331c-77.76 27.52-155.84 53.44-234.24 80-2.38 0.635-5.312 1.196-8.304 1.566l-0.336 0.034c-0.074-0.624-0.117-1.347-0.117-2.080s0.042-1.456 0.125-2.166l-0.008 0.086c-1.92-29.76-1.92-29.76-32-29.76h-128c-20.16 0-23.36 3.2-23.36 22.72v275.52c0 18.56 3.84 22.4 22.4 22.4h135.68c24 0 26.24-2.24 26.24-26.24 0-3.52 0-7.040 0-12.48h14.72c39.68 0 79.36 0 118.72 0 1.357 0.046 2.951 0.072 4.552 0.072 52.292 0 98.045-27.997 123.086-69.82l0.362-0.652c2.792-5.222 8.208-8.715 14.44-8.715 0.549 0 1.093 0.027 1.628 0.080l-0.068-0.005h107.84c42.24-0.32 62.72-18.88 67.2-63.36zM268.8 437.12c0-2.24 0-3.2 0-4.48 0-58.24 0-116.16 0-174.080 1.217-5.051 4.807-9.062 9.495-10.845l0.105-0.035c83.52-28.8 167.36-56 250.56-85.44 10.882-4.104 23.46-6.48 36.593-6.48 20.421 0 39.5 5.744 55.71 15.705l-0.463-0.265c91.52 50.56 183.68 100.16 275.2 150.080 16.32 8.96 21.12 22.080 13.76 35.84s-17.6 15.36-35.2 7.040c-60.8-28.16-121.6-56.64-182.72-84.16-11.209-4.91-24.242-7.933-37.934-8.317l-0.146-0.003c-58.88 0-117.76 0-176.64 0h-13.76v28.8h194.56c0.992-0.119 2.141-0.186 3.306-0.186 16.259 0 29.44 13.181 29.44 29.44 0 2.335-0.272 4.607-0.786 6.786l0.040-0.2c-2.56 14.4-13.76 22.72-32 22.72q-64 0-130.56 0c-0.546-0.070-1.178-0.11-1.819-0.11-6.511 0-12.055 4.137-14.148 9.926l-0.033 0.105c-15.486 37.454-50.37 63.982-91.791 67.177l-0.369 0.023c-49.92 3.52-99.2 0.96-150.4 0.96zM236.8 213.12v262.72h-124.48v-261.44zM687.040 723.2c2.616 5.614 5.606 10.449 9.084 14.884l-0.124-0.164c20.068 19.939 47.723 32.263 78.257 32.263 31.48 0 59.9-13.1 80.107-34.146l0.036-0.038c18.302-19.286 29.558-45.414 29.558-74.171 0-31.895-13.847-60.556-35.857-80.3l-0.101-0.089-149.44-139.2c-13.44-12.48-16.96-12.48-32 0l-148.48 138.24c-22.284 20.007-36.238 48.909-36.238 81.069 0 18.318 4.527 35.579 12.523 50.724l-0.285-0.593c18.82 35.268 55.374 58.862 97.439 58.862 8.334 0 16.452-0.926 24.256-2.681l-0.735 0.139c21.281-3.959 39.757-13.975 54.088-28.168l-0.008 0.008c4.148-4.349 8.035-9.048 11.575-14.010l0.265-0.39zM682.56 467.2l4.48 2.56c48.32 45.44 96 90.24 145.28 136 7.639 7.506 13.721 16.568 17.737 26.677l0.183 0.523c3.3 8.432 5.212 18.195 5.212 28.404 0 28.31-14.705 53.185-36.893 67.404l-0.32 0.192c-12.807 8.886-28.681 14.196-45.794 14.196-21.263 0-40.611-8.197-55.058-21.603l0.051 0.047c-8.32-7.36-15.68-15.36-23.68-23.36-2.72-3.399-6.868-5.557-11.52-5.557s-8.8 2.158-11.497 5.527l-0.023 0.029c-8.32 8.32-16.32 17.28-25.28 24.96-14.165 12.451-32.862 20.049-53.333 20.049-23.072 0-43.889-9.651-58.636-25.136l-0.031-0.033c-14.351-14.263-23.234-34.014-23.234-55.84s8.882-41.577 23.23-55.836l0.004-0.004c49.6-48.32 99.52-94.4 149.12-139.84z" />
<glyph unicode="&#xe908;" glyph-name="map" d="M913.28 692.8l-261.76 67.2-279.040-67.2-248 67.2h-7.040c-0.001 0-0.001 0-0.002 0-13.319 0-24.137-10.707-24.318-23.983v-558.097c0.154-10.902 7.459-20.057 17.428-22.996l0.172-0.044 261.76-67.52 279.040 67.52 248-67.52h7.040c13.359 0.178 24.142 10.961 24.32 24.303v557.777c-0.006 11.032-7.357 20.346-17.428 23.316l-0.172 0.044zM347.52 669.44v-549.76l-229.44 58.88v557.44l229.44-62.080zM626.88 177.92v-3.52l-229.76-55.36v552.96l229.76 55.36zM676.48 173.76v554.24l229.44-58.88v-557.76z" />
<glyph unicode="&#xe909;" glyph-name="news" d="M917.76 501.76c-0.008 33.112-17.975 62.026-44.691 77.53l-0.429 0.23v215.36c0 0.030 0 0.065 0 0.101 0 24.742-20.058 44.8-44.8 44.8-10.562 0-20.271-3.655-27.93-9.77l0.090 0.069-120-96c-57.707-46.452-131.888-74.56-212.634-74.56-0.058 0-0.117 0-0.175 0h-271.031c-49.588-0.181-89.739-40.332-89.92-89.903v-135.377c0-0.095-0.001-0.207-0.001-0.32 0-49.661 40.259-89.92 89.92-89.92 0 0 0 0 0.001 0h47.68c-1.933-13.467-3.093-29.107-3.199-44.997l-0.001-0.123c0.070-56.849 13.413-110.565 37.094-158.238l-0.934 2.078c7.398-14.359 22.121-24.009 39.098-24.009 0.317 0 0.633 0.003 0.949 0.010l-0.047-0.001h104.64c0.19-0.003 0.415-0.005 0.64-0.005 24.566 0 44.48 19.914 44.48 44.48 0 0.002 0 0.003 0 0.005v0c0.008 0.314 0.013 0.683 0.013 1.053 0 9.641-3.255 18.522-8.725 25.604l0.072-0.097c-22.884 29.964-36.701 67.919-36.8 109.097v0.023c0.041 16.087 2.376 31.612 6.695 46.288l-0.295-1.168h39.36c0.049 0 0.108 0 0.166 0 80.746 0 154.927-28.108 213.293-75.073l-0.659 0.513 119.68-96c7.644-6.147 17.468-9.866 28.16-9.866 24.9 0 45.089 20.17 45.12 45.063v215.683c27.137 15.581 45.12 44.394 45.12 77.408 0 0.011 0 0.023 0 0.034v-0.002zM827.52 230.4l-91.52 68.48c-73.018 58.812-166.897 94.4-269.088 94.4-0.011 0-0.022 0-0.033 0h0.002v209.28c102.163 0.319 195.968 35.842 269.983 95.068l-0.863-0.668 91.52 69.44z" />
<glyph unicode="&#xe90a;" glyph-name="people" d="M590.72 413.12c-25.6 0-38.080-14.080-80.32-14.080s-54.4 14.080-80.32 14.080c-0.096 0-0.209 0-0.322 0-66.226 0-119.955-53.505-120.318-119.646v-23.715c0-0.001 0-0.003 0-0.005 0-23.634 18.978-42.835 42.526-43.195h315.554c23.786 0.18 43.020 19.414 43.2 43.183v23.057c0 66.451-53.869 120.32-120.32 120.32v0zM668.16 269.76h-316.16v23.040c0.179 42.584 34.562 77.079 77.086 77.44h0.034c23.63-7.498 51.033-12.638 79.359-14.353l0.961-0.047c29.287 1.762 56.69 6.902 82.759 15.058l-2.439-0.658c0.095 0 0.207 0.001 0.32 0.001 42.769 0 77.44-34.671 77.44-77.44 0 0 0 0 0-0.001v0zM512 427.52c70.692 0 128 57.308 128 128s-57.308 128-128 128c-70.692 0-128-57.308-128-128v0 0c0-70.692 57.308-128 128-128v0zM512 642.88c47.54 0 86.079-38.54 86.079-86.080s-38.539-86.080-86.080-86.080c-47.428 0-85.898 38.357-86.079 85.743v0.017c0 0 0 0 0 0.001 0 47.605 38.5 86.218 86.063 86.399h0.017zM512 847.040c-15.376 0-27.84-12.464-27.84-27.84s12.464-27.84 27.84-27.84c15.376 0 27.84 12.464 27.84 27.84v0c0 15.376-12.464 27.84-27.84 27.84v0zM512 874.88c0.381 0.009 0.83 0.015 1.28 0.015 30.751 0 55.68-24.929 55.68-55.68s-24.929-55.68-55.68-55.68c-30.746 0-55.672 24.92-55.68 55.664v0.001c0 0.004 0 0.010 0 0.015 0 30.301 24.204 54.949 54.334 55.664l0.066 0.001zM512 96c-15.376 0-27.84-12.464-27.84-27.84s12.464-27.84 27.84-27.84c15.376 0 27.84 12.464 27.84 27.84v0c0 15.376-12.464 27.84-27.84 27.84v0zM512 124.16c0.095 0.001 0.207 0.001 0.32 0.001 30.928 0 56-25.072 56-56s-25.072-56-56-56c-30.928 0-55.999 25.072-56 55.999v0c0.54 30.335 25.258 54.72 55.672 54.72 0.003 0 0.006 0 0.009 0v0zM847.68 652.16c-15.376 0-27.84-12.464-27.84-27.84s12.464-27.84 27.84-27.84c15.376 0 27.84 12.464 27.84 27.84v0c0 15.376-12.464 27.84-27.84 27.84v0zM847.68 680c30.613-0.182 55.36-25.040 55.36-55.679 0-30.751-24.929-55.68-55.68-55.68s-55.68 24.928-55.68 55.679v0c0 0 0 0.001 0 0.001 0 30.751 24.929 55.68 55.68 55.68 0.113 0 0.225 0 0.337-0.001h-0.017zM206.72 652.16c-15.376 0-27.84-12.464-27.84-27.84s12.464-27.84 27.84-27.84c15.376 0 27.84 12.464 27.84 27.84v0c0 15.376-12.464 27.84-27.84 27.84v0zM206.72 680c30.751 0 55.68-24.929 55.68-55.68s-24.929-55.68-55.68-55.68c-30.751 0-55.68 24.929-55.68 55.68v0c0 30.751 24.929 55.68 55.68 55.68v0zM847.68 289.92c-15.376 0-27.84-12.464-27.84-27.84s12.464-27.84 27.84-27.84c15.376 0 27.84 12.464 27.84 27.84v0c0 15.376-12.464 27.84-27.84 27.84v0zM847.68 317.76c30.613-0.182 55.36-25.040 55.36-55.679 0-30.751-24.929-55.68-55.68-55.68s-55.68 24.928-55.68 55.679v0c0 0 0 0.001 0 0.001 0 30.751 24.929 55.68 55.68 55.68 0.113 0 0.225 0 0.337-0.001h-0.017zM243.84 289.92c-15.376 0-27.84-12.464-27.84-27.84s12.464-27.84 27.84-27.84c15.376 0 27.84 12.464 27.84 27.84v0c0 15.376-12.464 27.84-27.84 27.84v0zM243.84 317.76c30.613-0.182 55.36-25.040 55.36-55.679 0-30.751-24.929-55.68-55.68-55.68s-55.68 24.928-55.68 55.679v0c0 0 0 0.001 0 0.001 0 30.751 24.929 55.68 55.68 55.68 0.113 0 0.225 0 0.337-0.001h-0.017zM270.72 700.48c-6.276 1.507-10.868 7.072-10.868 13.709 0 1.038 0.112 2.050 0.326 3.024l-0.017-0.093c0.4 1.586 1.062 2.976 1.944 4.196l-0.024-0.036c18.584 26.725 45.081 46.804 76.068 56.981l1.052 0.299c1.067 0.283 2.291 0.446 3.554 0.446 6.398 0 11.821-4.172 13.697-9.944l0.029-0.102c0.346-1.163 0.545-2.499 0.545-3.881 0-5.898-3.627-10.949-8.771-13.045l-0.094-0.034c-25.694-8.145-47.011-23.974-61.833-44.756l-0.247-0.364c-2.589-4.081-7.083-6.751-12.2-6.751-1.12 0-2.21 0.128-3.257 0.37l0.097-0.019zM676.16 779.2c1.153 0.303 2.476 0.477 3.84 0.477s2.687-0.174 3.949-0.501l-0.109 0.024c32.054-10.604 58.545-30.782 76.796-57.106l0.324-0.494c1.362-2.098 2.171-4.664 2.171-7.419 0-4.973-2.638-9.33-6.591-11.747l-0.060-0.034c-2.051-1.233-4.525-1.963-7.171-1.963-5.071 0-9.516 2.681-11.994 6.702l-0.035 0.061c-15.327 20.792-36.556 36.436-61.205 44.55l-0.875 0.25c-5.899 1.639-10.157 6.962-10.157 13.28s4.258 11.641 10.061 13.257l0.097 0.023zM881.6 503.68c1.882-1.697 3.317-3.854 4.13-6.296l0.030-0.104c4.155-13.089 6.55-28.143 6.55-43.756 0-18.765-3.459-36.722-9.773-53.269l0.344 1.025c-2.173-5.020-7.084-8.468-12.8-8.468-7.681 0-13.908 6.227-13.908 13.908 0 1.965 0.408 3.835 1.143 5.53l-0.035-0.090c3.882 11.515 6.123 24.776 6.123 38.56s-2.24 27.045-6.377 39.439l0.254-0.879c-0.428 1.271-0.675 2.735-0.675 4.256 0 7.599 6.161 13.76 13.76 13.76 3.753 0 7.155-1.502 9.637-3.938l-0.002 0.002zM162.56 396.48c-2.544-2.527-6.050-4.088-9.92-4.088s-7.376 1.561-9.921 4.089l0.001-0.001c-0.906 1.123-1.753 2.379-2.491 3.705l-0.069 0.135c-5.861 15.389-9.255 33.184-9.255 51.772 0 15.787 2.448 31.002 6.985 45.286l-0.29-1.058c1.77 5.894 7.147 10.114 13.51 10.114 1.342 0 2.64-0.188 3.869-0.538l-0.099 0.024c5.917-1.627 10.191-6.959 10.191-13.289 0-1.424-0.216-2.797-0.618-4.088l0.026 0.097c-4.033-11.45-6.364-24.653-6.364-38.4s2.33-26.95 6.617-39.235l-0.254 0.835c0.952-1.822 1.511-3.98 1.511-6.269 0-3.492-1.301-6.68-3.444-9.106l0.013 0.015zM755.84 204.8c5.635-1.925 9.616-7.175 9.616-13.353 0-1.517-0.24-2.977-0.684-4.346l0.028 0.1c-0.328-1.487-1-2.784-1.929-3.85l0.009 0.010c-20.542-24.852-48.731-42.731-80.933-50.051l-0.987-0.189c-1.337-0.461-2.877-0.727-4.48-0.727-7.824 0-14.167 6.343-14.167 14.167 0 6.222 4.010 11.506 9.587 13.41l0.1 0.030c26.525 6.14 49.12 20.202 65.787 39.522l0.133 0.158c2.542 3.928 6.902 6.491 11.86 6.491 2.203 0 4.287-0.506 6.144-1.408l-0.084 0.037zM350.080 133.12c-1.147-0.384-2.468-0.605-3.84-0.605s-2.693 0.222-3.928 0.631l0.088-0.025c-33.147 7.63-61.304 25.481-81.725 50l-0.195 0.24c-1.688 2.294-2.702 5.176-2.702 8.294 0 4.568 2.176 8.629 5.548 11.201l0.034 0.025c2.284 1.85 5.225 2.971 8.428 2.971 4.587 0 8.638-2.298 11.063-5.806l0.029-0.045c16.791-19.566 39.377-33.726 65.083-39.832l0.837-0.168c5.775-1.844 9.883-7.162 9.883-13.44s-4.109-11.596-9.784-13.412l-0.1-0.028z" />
<glyph unicode="&#xe90b;" glyph-name="promise" d="M358.4 692.48h136.64l-128-116.8c-17.321-15.93-28.136-38.702-28.136-64 0-47.969 38.887-86.856 86.856-86.856 22.672 0 43.314 8.686 58.782 22.913l-0.062-0.056 46.4 42.24 206.080-167.36c11.84-9.756 19.33-24.422 19.33-40.836 0-12.571-4.393-24.116-11.728-33.183l0.078 0.1-12.8-15.68c-9.685-11.862-24.27-19.407-40.621-19.52h-0.019c-12.188 0.469-23.269 4.854-32.109 11.924l0.109-0.084-35.84-44.48c-11.056-13.323-27.618-21.745-46.148-21.745-14.192 0-27.23 4.94-37.488 13.195l0.116-0.090-16.96 14.4c-17.359-17.292-41.305-27.983-67.747-27.983-22.902 0-43.931 8.019-60.431 21.403l0.179-0.14-119.040 108.16h-30.4v313.28l74.56 75.84c9.497 9.5 22.619 15.376 37.114 15.376 0.452 0 0.903-0.006 1.353-0.017l-0.067 0.001zM446.080 673.28h-87.68c-0.15 0.003-0.327 0.004-0.504 0.004-8.951 0-17.044-3.675-22.851-9.599l-0.005-0.005-70.72-70.4v-286.080h18.56l123.84-112c12.782-10.047 29.107-16.113 46.848-16.113 23.417 0 44.366 10.569 58.337 27.196l0.096 0.117 7.040 7.040 30.4-26.56c7.12-6.284 16.53-10.12 26.835-10.12 12.798 0 24.214 5.916 31.664 15.162l0.061 0.078 48.32 59.2 14.4-12.16c5.734-4.586 13.092-7.36 21.098-7.36 0.008 0 0.015 0 0.023 0h-0.001c0.166-0.003 0.363-0.005 0.559-0.005 10.294 0 19.453 4.861 25.306 12.412l0.054 0.073 12.8 15.68c4.564 5.726 7.322 13.066 7.322 21.051 0 10.41-4.69 19.725-12.071 25.947l-0.051 0.042-193.6 157.12-33.92-32c-18.479-16.099-42.799-25.914-69.412-25.914-58.498 0-105.92 47.422-105.92 105.92 0 29.718 12.239 56.577 31.95 75.813l0.021 0.021zM550.72 692.48h114.88c0.267 0.005 0.583 0.008 0.899 0.008 14.615 0 27.86-5.867 37.507-15.374l75.834-75.834v-288l-16.64 18.56c-2.899 3.422-6.044 6.465-9.463 9.175l-0.137 0.105-203.52 165.44 41.92 37.44c2.131 2.188 3.445 5.181 3.445 8.48s-1.314 6.292-3.447 8.483l0.003-0.003c-2.209 2.258-5.244 3.7-8.615 3.839l-0.025 0.001c-3.1-0.026-5.911-1.239-8.006-3.206l0.006 0.006-106.88-97.92h-1.6c-10.802-8.605-24.647-13.807-39.707-13.807-34.688 0-62.93 27.596-63.97 62.031l-0.002 0.096c0.469 17.829 8.386 33.721 20.739 44.747l0.061 0.053 131.2 120.32c9.162 9.084 21.622 14.854 35.425 15.357l0.095 0.003zM759.36 593.28l-70.4 70.4c-5.668 5.19-13.252 8.37-21.578 8.37-0.627 0-1.25-0.018-1.868-0.054l0.086 0.004h-114.88c-0.25 0.007-0.543 0.011-0.838 0.011-8.472 0-16.175-3.292-21.899-8.667l0.017 0.016-130.88-119.36c-8.655-8.032-14.054-19.469-14.054-32.168 0-11.421 4.368-21.823 11.524-29.625l-0.029 0.032c8.157-8.27 19.476-13.403 31.993-13.44h0.007c0.435-0.016 0.945-0.025 1.457-0.025 10.44 0 20.002 3.759 27.407 9.998l-0.064-0.053 105.92 96c5.89 6.63 14.439 10.787 23.959 10.787 8.903 0 16.957-3.636 22.758-9.504l0.003-0.003c4.997-5.173 8.075-12.226 8.075-19.998 0-0.733-0.027-1.459-0.081-2.178l0.006 0.096c-0.262-8.518-4.026-16.109-9.894-21.417l-0.026-0.023-26.88-24.64 181.44-147.2zM73.92 606.4h147.52v-309.12c0 0 0-0.001 0-0.001 0-28.871-23.314-52.297-52.143-52.479h-96.017zM201.92 587.52h-108.8v-323.52h76.16c17.673 0 32 14.327 32 32v0zM801.92 606.4h147.52v-361.6h-96c-28.807 0-52.16 23.353-52.16 52.16v0zM929.92 587.52h-108.48v-290.24c-0.025-0.478-0.040-1.037-0.040-1.6 0-17.673 14.327-32 32-32 0.014 0 0.028 0 0.042 0h76.158zM147.84 349.44c17.673 0 32-14.327 32-32s-14.327-32-32-32c-17.673 0-32 14.327-32 32v0 0c0 17.673 14.327 32 32 32v0zM147.84 306.56c5.817 0.979 10.194 5.979 10.194 12s-4.377 11.021-10.122 11.99l-0.071 0.010c-0.001 0-0.003 0-0.004 0-6.539 0-11.84-5.301-11.84-11.84 0-0.113 0.002-0.225 0.005-0.336v0.016c0-6.539 5.301-11.84 11.84-11.84v0zM876.16 349.44c17.673 0 32-14.327 32-32s-14.327-32-32-32c-17.673 0-32 14.327-32 32v0 0c0 17.673 14.327 32 32 32v0zM876.16 306.56c5.817 0.979 10.194 5.979 10.194 12s-4.377 11.021-10.122 11.99l-0.071 0.010c-5.817-0.979-10.194-5.979-10.194-12s4.377-11.021 10.122-11.99l0.071-0.010z" />
<glyph unicode="&#xe90c;" glyph-name="company" d="M744.32 755.52h-418.88c-1.129-0.102-2.442-0.16-3.769-0.16-24.566 0-44.48 19.914-44.48 44.48s19.914 44.48 44.48 44.48c1.327 0 2.64-0.058 3.937-0.172l-0.168 0.012h418.88c1.129 0.102 2.442 0.16 3.769 0.16 24.566 0 44.48-19.914 44.48-44.48s-19.914-44.48-44.48-44.48c-1.327 0-2.64 0.058-3.937 0.172l0.168-0.012zM325.44 824c-12.803-0.776-22.893-11.349-22.893-24.278 0-12.137 8.891-22.198 20.515-24.024l0.137-0.018h421.12c12.179 1.445 21.535 11.71 21.535 24.16s-9.355 22.715-21.42 24.149l-0.115 0.011zM264.32 736h541.12c0.256 0.005 0.558 0.008 0.86 0.008 24.566 0 44.48-19.914 44.48-44.48 0-19.964-13.152-36.856-31.265-42.484l-0.315-0.084v-563.2c-1.064-29.914-25.571-53.761-55.647-53.761-0.124 0-0.248 0-0.372 0.001h-167.341c-13.962 0-25.28 11.318-25.28 25.28v0 75.84c-0.163 2.76-2.36 4.957-5.105 5.119l-0.015 0.001h-61.12c-2.76-0.163-4.957-2.36-5.119-5.105l-0.001-0.015v-76.16c0-13.962-11.318-25.28-25.28-25.28v0h-167.68c-30.744 0.178-55.64 24.962-56 55.646v563.234c-15.697 7.195-26.403 22.772-26.403 40.848 0 23.222 17.669 42.318 40.296 44.576l0.187 0.015zM763.52 50.24c0.297-0.009 0.646-0.014 0.997-0.014 19.617 0 35.52 15.903 35.52 35.52 0 0.568-0.013 1.132-0.040 1.693l0.003-0.079v580.8h8.96c12.206 1.418 21.592 11.696 21.592 24.166 0 0.956-0.055 1.899-0.162 2.826l0.011-0.113c-1.617 12.017-11.701 21.218-23.977 21.44h-542.103c-13.293-0.18-24-10.999-24-24.318 0-0.001 0-0.001 0-0.002v0c-0.003-0.136-0.004-0.297-0.004-0.458 0-12.178 9.192-22.209 21.017-23.532l0.107-0.010h9.28v-580.8c0-19.617 15.903-35.52 35.52-35.52v0h167.68c0.003 0 0.006 0 0.010 0 2.715 0 4.937 2.113 5.109 4.785l0.001 0.015v76.48c-0.001 0.095-0.002 0.207-0.002 0.32 0 13.962 11.318 25.28 25.28 25.28 0.001 0 0.001 0 0.002 0h60.8c14.138 0 25.6-11.462 25.6-25.6v-76.16c0-2.828 2.292-5.12 5.12-5.12v0zM367.36 646.080h30.080c0.095 0.001 0.207 0.002 0.32 0.002 13.962 0 25.28-11.318 25.28-25.28 0-0.001 0-0.001 0-0.002v0-32c0-0.001 0-0.001 0-0.002 0-13.962-11.318-25.28-25.28-25.28-0.113 0-0.225 0.001-0.337 0.002h-30.063c-0.095-0.001-0.207-0.002-0.32-0.002-13.962 0-25.28 11.318-25.28 25.28 0 0.001 0 0.001 0 0.002v0 32c0 0.001 0 0.001 0 0.002 0 13.962 11.318 25.28 25.28 25.28 0.113 0 0.225-0.001 0.337-0.002h-0.017zM397.44 585.28c2.828 0 5.12 2.292 5.12 5.12v0 32c-0.173 2.687-2.395 4.8-5.11 4.8-0.004 0-0.007 0-0.011 0h-30.079c-0.003 0-0.006 0-0.010 0-2.715 0-4.937-2.113-5.109-4.785l-0.001-0.015v-32c0-2.828 2.292-5.12 5.12-5.12v0zM519.36 646.080h30.4c0.095 0.001 0.207 0.002 0.32 0.002 13.962 0 25.28-11.318 25.28-25.28 0-0.001 0-0.001 0-0.002v0-32c0-0.001 0-0.001 0-0.002 0-13.962-11.318-25.28-25.28-25.28-0.113 0-0.225 0.001-0.337 0.002h-30.383c-13.962 0-25.28 11.318-25.28 25.28v0 32c0 0.001 0 0.001 0 0.002 0 13.962 11.318 25.28 25.28 25.28 0.113 0 0.225-0.001 0.337-0.002h-0.017zM549.76 585.28c2.828 0 5.12 2.292 5.12 5.12v0 32c-0.173 2.687-2.395 4.8-5.11 4.8-0.004 0-0.007 0-0.011 0h-30.399c-2.651 0-4.8-2.149-4.8-4.8v0-32c0-0.003 0-0.006 0-0.010 0-2.715 2.113-4.937 4.785-5.109l0.015-0.001zM672 646.080h32c0.095 0.001 0.207 0.002 0.32 0.002 13.962 0 25.28-11.318 25.28-25.28 0-0.001 0-0.001 0-0.002v0-32c0-0.001 0-0.001 0-0.002 0-13.962-11.318-25.28-25.28-25.28-0.113 0-0.225 0.001-0.337 0.002h-31.983c-13.962 0-25.28 11.318-25.28 25.28v0 32c0 13.962 11.318 25.28 25.28 25.28v0zM704 585.28c2.828 0 5.12 2.292 5.12 5.12v0 32c-0.173 2.687-2.395 4.8-5.11 4.8-0.004 0-0.007 0-0.011 0h-31.999c-2.651 0-4.8-2.149-4.8-4.8v0-32c0-0.003 0-0.006 0-0.010 0-2.715 2.113-4.937 4.785-5.109l0.015-0.001zM367.36 524.16h30.080c0.095 0.001 0.207 0.002 0.32 0.002 13.962 0 25.28-11.318 25.28-25.28 0-0.001 0-0.001 0-0.002v0-30.4c0-0.001 0-0.001 0-0.002 0-13.962-11.318-25.28-25.28-25.28-0.113 0-0.225 0.001-0.337 0.002h-30.063c-0.095-0.001-0.207-0.002-0.32-0.002-13.962 0-25.28 11.318-25.28 25.28 0 0.001 0 0.001 0 0.002v0 30.4c0 0.001 0 0.001 0 0.002 0 13.962 11.318 25.28 25.28 25.28 0.113 0 0.225-0.001 0.337-0.002h-0.017zM397.44 463.36c2.828 0 5.12 2.292 5.12 5.12v0 30.4c-0.173 2.687-2.395 4.8-5.11 4.8-0.004 0-0.007 0-0.011 0h-30.079c-0.003 0-0.006 0-0.010 0-2.715 0-4.937-2.113-5.109-4.785l-0.001-0.015v-30.4c0-2.828 2.292-5.12 5.12-5.12v0zM519.36 524.16h30.4c0.095 0.001 0.207 0.002 0.32 0.002 13.962 0 25.28-11.318 25.28-25.28 0-0.001 0-0.001 0-0.002v0-30.4c0-0.001 0-0.001 0-0.002 0-13.962-11.318-25.28-25.28-25.28-0.113 0-0.225 0.001-0.337 0.002h-30.383c-13.962 0-25.28 11.318-25.28 25.28v0 30.4c0 0.001 0 0.001 0 0.002 0 13.962 11.318 25.28 25.28 25.28 0.113 0 0.225-0.001 0.337-0.002h-0.017zM549.76 463.36c2.828 0 5.12 2.292 5.12 5.12v0 30.4c-0.173 2.687-2.395 4.8-5.11 4.8-0.004 0-0.007 0-0.011 0h-30.399c-2.651 0-4.8-2.149-4.8-4.8v0-30.4c0-0.003 0-0.006 0-0.010 0-2.715 2.113-4.937 4.785-5.109l0.015-0.001zM672 524.16h32c0.095 0.001 0.207 0.002 0.32 0.002 13.962 0 25.28-11.318 25.28-25.28 0-0.001 0-0.001 0-0.002v0-30.4c0-0.001 0-0.001 0-0.002 0-13.962-11.318-25.28-25.28-25.28-0.113 0-0.225 0.001-0.337 0.002h-31.983c-13.962 0-25.28 11.318-25.28 25.28v0 30.4c0 13.962 11.318 25.28 25.28 25.28v0zM704 463.36c2.828 0 5.12 2.292 5.12 5.12v0 30.4c-0.173 2.687-2.395 4.8-5.11 4.8-0.004 0-0.007 0-0.011 0h-31.999c-2.651 0-4.8-2.149-4.8-4.8v0-30.4c0-0.003 0-0.006 0-0.010 0-2.715 2.113-4.937 4.785-5.109l0.015-0.001zM367.36 402.24h30.080c0.095 0.001 0.207 0.002 0.32 0.002 13.962 0 25.28-11.318 25.28-25.28 0-0.001 0-0.001 0-0.002v0-32c0-0.001 0-0.001 0-0.002 0-13.962-11.318-25.28-25.28-25.28-0.113 0-0.225 0.001-0.337 0.002h-30.063c-0.095-0.001-0.207-0.002-0.32-0.002-13.962 0-25.28 11.318-25.28 25.28 0 0.001 0 0.001 0 0.002v0 32c0 0.001 0 0.001 0 0.002 0 13.962 11.318 25.28 25.28 25.28 0.113 0 0.225-0.001 0.337-0.002h-0.017zM397.44 341.44c2.828 0 5.12 2.292 5.12 5.12v32c-0.173 2.687-2.395 4.8-5.11 4.8-0.004 0-0.007 0-0.011 0h-30.079c-0.003 0-0.006 0-0.010 0-2.715 0-4.937-2.113-5.109-4.785l-0.001-0.015v-32c0-2.828 2.292-5.12 5.12-5.12v0zM519.36 402.24h30.4c0.095 0.001 0.207 0.002 0.32 0.002 13.962 0 25.28-11.318 25.28-25.28 0-0.001 0-0.001 0-0.002v0-32c0-0.001 0-0.001 0-0.002 0-13.962-11.318-25.28-25.28-25.28-0.113 0-0.225 0.001-0.337 0.002h-30.383c-13.962 0-25.28 11.318-25.28 25.28v0 32c0 0.001 0 0.001 0 0.002 0 13.962 11.318 25.28 25.28 25.28 0.113 0 0.225-0.001 0.337-0.002h-0.017zM549.76 341.44c2.828 0 5.12 2.292 5.12 5.12v32c-0.173 2.687-2.395 4.8-5.11 4.8-0.004 0-0.007 0-0.011 0h-30.399c-2.651 0-4.8-2.149-4.8-4.8v0-32c0-0.003 0-0.006 0-0.010 0-2.715 2.113-4.937 4.785-5.109l0.015-0.001zM672 402.24h32c0.095 0.001 0.207 0.002 0.32 0.002 13.962 0 25.28-11.318 25.28-25.28 0-0.001 0-0.001 0-0.002v0-32c0-0.001 0-0.001 0-0.002 0-13.962-11.318-25.28-25.28-25.28-0.113 0-0.225 0.001-0.337 0.002h-31.983c-13.962 0-25.28 11.318-25.28 25.28v0 32c0 13.962 11.318 25.28 25.28 25.28v0zM704 341.44c2.828 0 5.12 2.292 5.12 5.12v32c-0.173 2.687-2.395 4.8-5.11 4.8-0.004 0-0.007 0-0.011 0h-31.999c-2.651 0-4.8-2.149-4.8-4.8v0-32c0-0.003 0-0.006 0-0.010 0-2.715 2.113-4.937 4.785-5.109l0.015-0.001zM369.28 280.64h30.080c14.138 0 25.6-11.462 25.6-25.6v-31.040c0-14.138-11.462-25.6-25.6-25.6v0h-30.080c-14.138 0-25.6 11.462-25.6 25.6v0 32c0.469 13.086 10.692 23.642 23.593 24.635l0.087 0.005zM399.36 219.52c2.828 0 5.12 2.292 5.12 5.12v0 31.36c0 2.828-2.292 5.12-5.12 5.12v0h-30.080c-2.828 0-5.12-2.292-5.12-5.12v0-32c0-2.828 2.292-5.12 5.12-5.12v0zM521.6 280.64h32c12.441-1.607 22.011-11.948 22.399-24.601l0.001-0.039v-32c0-0.001 0-0.001 0-0.002 0-14.026-11.28-25.417-25.263-25.598h-32.017c-14.066 0.178-25.422 11.534-25.6 25.583v32.017c0.696 13.758 12.021 24.649 25.889 24.649 0.236 0 0.471-0.003 0.706-0.009l-0.035 0.001zM553.6 219.52c2.701 0.295 4.825 2.419 5.118 5.094l0.002 0.026v31.36c-0.163 2.76-2.36 4.957-5.105 5.119l-0.015 0.001h-32c-2.828 0-5.12-2.292-5.12-5.12v0-32c0-2.828 2.292-5.12 5.12-5.12v0zM672 280.64h32c14.138 0 25.6-11.462 25.6-25.6v0-31.040c0-14.138-11.462-25.6-25.6-25.6v0h-32c-14 0.181-25.28 11.572-25.28 25.598 0 0.001 0 0.001 0 0.002v0 32c0.526 13.615 11.608 24.474 25.264 24.64h0.016zM704 219.52c1.814 0.745 3.090 2.451 3.199 4.467l0.001 0.013v32c0 2.828-2.292 5.12-5.12 5.12h-30.080c-2.687-0.173-4.8-2.395-4.8-5.11 0-0.004 0-0.007 0-0.011v0.001-32c0-0.003 0-0.006 0-0.010 0-2.715 2.113-4.937 4.785-5.109l0.015-0.001z" />
<glyph unicode="&#xe90d;" glyph-name="download" d="M771.2 648h-154.88c-6.646-1.051-11.668-6.739-11.668-13.6s5.021-12.549 11.59-13.59l0.078-0.010h154.88c0.001 0 0.002 0 0.003 0 77.231 0 139.84-62.609 139.84-139.84 0-0.338-0.001-0.675-0.004-1.012v0.052-291.84c-0.182-77.094-62.721-139.52-139.84-139.52 0 0 0 0 0 0h-518.4c0 0 0 0 0 0-77.119 0-139.657 62.426-139.84 139.502v291.858c-0.002 0.285-0.003 0.622-0.003 0.96 0 77.231 62.609 139.84 139.84 139.84 0.001 0 0.002 0 0.004 0h137.28c6.646 1.051 11.668 6.739 11.668 13.6s-5.021 12.549-11.59 13.59l-0.078 0.010h-137.28c-92.117-0.181-166.723-74.898-166.723-167.040 0-0.338 0.001-0.675 0.003-1.012v0.052-291.84c0.904-91.453 75.163-165.263 166.703-165.44h518.417c92.004 0.182 166.538 74.716 166.72 166.703v290.577c0.002 0.285 0.003 0.623 0.003 0.96 0 92.142-74.606 166.859-166.706 167.040h-0.017zM356.16 372.16c-2.457 2.457-5.851 3.976-9.6 3.976-7.498 0-13.576-6.078-13.576-13.576 0-3.749 1.52-7.143 3.976-9.6v0l169.6-168.32 3.2-2.24s0 0 0 0c1.43-0.806 3.139-1.281 4.96-1.281s3.53 0.475 5.011 1.308l-0.051-0.027c1.405 0.576 2.586 1.449 3.509 2.546l0.011 0.014 171.84 167.040c2.49 2.441 4.034 5.84 4.034 9.6s-1.544 7.159-4.032 9.598l-0.002 0.002c-2.426 2.394-5.76 3.873-9.44 3.873s-7.014-1.479-9.441-3.875l0.001 0.001-146.56-145.6v633.92c0.102 0.629 0.16 1.354 0.16 2.092 0 7.599-6.161 13.76-13.76 13.76s-13.76-6.161-13.76-13.76c0-0.738 0.058-1.463 0.17-2.17l-0.010 0.078v-632.96z" />
<glyph unicode="&#xe90e;" glyph-name="earth" d="M512 854.4c-0.095 0-0.208 0-0.32 0-222.858 0-403.52-180.662-403.52-403.52s180.662-403.52 403.52-403.52c222.858 0 403.52 180.662 403.52 403.52v0c-0.182 222.672-180.553 403.156-403.165 403.52h-0.035zM512 75.2c-52.846 2.533-102.106 15.363-146.648 36.515l2.328-0.995 188.16 224c3.969 4.358 6.4 10.178 6.4 16.566 0 0.026 0 0.052 0 0.078v-0.004 74.56c0 0.001 0 0.001 0 0.002 0 13.785-11.175 24.96-24.96 24.96-0.113 0-0.225-0.001-0.337-0.002h0.017c-88.96 0-184.96 93.12-184.96 93.12-4.57 4.548-10.872 7.36-17.831 7.36-0.031 0-0.062 0-0.093 0h-100.795c-0.095 0.001-0.207 0.002-0.32 0.002-13.785 0-24.96-11.175-24.96-24.96 0-0.001 0-0.001 0-0.002v0-151.36c0.056-9.882 5.703-18.432 13.936-22.653l0.144-0.067 86.72-43.52-7.36-164.48c-94.981 70.25-156.755 180.708-159.99 305.733l-0.010 0.507c-0.043 2.137-0.068 4.656-0.068 7.182 0 55.294 11.805 107.831 33.032 155.227l-0.964-2.409 112.64-7.36c0.25-0.009 0.545-0.014 0.84-0.014 5.576 0 10.731 1.805 14.911 4.864l-0.071-0.050 100.48 102.4c4.658 4.567 7.577 10.893 7.68 17.901v0.019l-7.68 75.52c32.337 11.39 69.754 19.054 108.608 21.385l1.152 0.055c64.421-0.22 125.656-13.615 181.229-37.63l-2.989 1.15-32-29.12c-27.321-27.427-44.213-65.261-44.213-107.040s16.891-79.613 44.217-107.045l-0.005 0.005c28.8-28.48 160-36.16 200.96-36.16h20.48c7.244-23.959 11.413-51.492 11.413-80s-4.17-56.042-11.933-82.025l0.519 2.025c-15.335-49.381-39.33-92.091-70.488-128.488l0.408 0.488s-8.96-12.48-8.96-13.76c-72.474-78.084-173.856-128.465-287.020-134.042l-0.98-0.038z" />
<glyph unicode="&#xe90f;" glyph-name="home" d="M684.8 840h80.64c0.095 0.001 0.207 0.001 0.32 0.001 20.678 0 37.44-16.762 37.44-37.44 0 0 0-0.001 0-0.001v0-190.080l112.96-92.8c8.337-7.032 13.597-17.485 13.597-29.167 0-9.108-3.198-17.47-8.532-24.023l0.055 0.070-36.8-44.8c-6.919-8.525-17.397-13.928-29.137-13.928-8.862 0-17.004 3.079-23.417 8.225l0.073-0.057-336.96 278.080-335.040-278.080c-6.56-5.274-14.989-8.466-24.164-8.466-1.181 0-2.35 0.053-3.505 0.156l0.149-0.011c-10.324 1.001-19.32 5.989-25.553 13.383l-0.047 0.057-36.48 44.8c-5.47 6.466-8.796 14.899-8.796 24.109 0 1.201 0.057 2.389 0.167 3.561l-0.011-0.15c0.987 10.295 6.119 19.227 13.684 25.222l0.076 0.058 362.56 300.8c15.355 12.719 35.257 20.436 56.96 20.436s41.605-7.717 57.109-20.556l-0.149 0.12 96-78.72v61.44c-0.001 0.097-0.001 0.211-0.001 0.325 0 20.453 16.4 37.076 36.768 37.434h0.034zM762.56 800h-74.56v-145.28l-161.92 133.44c-8.397 6.853-19.234 11.004-31.040 11.004s-22.643-4.152-31.129-11.075l0.089 0.070-361.92-298.24 32-39.68 337.28 276.8c6.396 5.254 14.666 8.44 23.68 8.44s17.284-3.185 23.745-8.492l-0.065 0.052 336.32-276.8 32 40-125.44 103.36zM495.040 615.68c0.044 0 0.095 0 0.147 0 8.947 0 17.161-3.138 23.602-8.374l-0.069 0.054 272.96-224v-245.76c0-24.035-19.485-43.52-43.52-43.52v0h-160c-0.192-0.003-0.418-0.005-0.645-0.005-23.812 0-43.157 19.124-43.515 42.851v137.634c0.017 0.104 0.027 0.225 0.027 0.347 0 1.237-1.003 2.24-2.24 2.24-0.123 0-0.243-0.010-0.36-0.029l0.013 0.002h-93.44c-0.104 0.017-0.225 0.027-0.347 0.027-1.237 0-2.24-1.003-2.24-2.24 0-0.123 0.010-0.243 0.029-0.36l-0.002 0.013v-137.6c0-24.035-19.485-43.52-43.52-43.52v0h-160c-0.095-0.001-0.207-0.001-0.32-0.001-23.859 0-43.2 19.341-43.2 43.2 0 0 0 0.001 0 0.001v0 245.12l272.96 224c6.343 5.488 14.578 8.943 23.611 9.278l0.069 0.002zM751.040 363.52l-256 210.56-256-210.88v-226.24c0-0.005 0-0.012 0-0.018 0-1.478 1.113-2.696 2.547-2.861l0.013-0.001h160c1.414 0 2.56 1.146 2.56 2.56v0 137.92c0 0 0 0.001 0 0.001 0 24.035 19.485 43.52 43.52 43.52 0.113 0 0.225 0 0.337-0.001h92.143c24.035 0 43.52-19.485 43.52-43.52v0-137.6s0-1.6 0-1.92c0.286-0.104 0.616-0.165 0.96-0.165s0.674 0.060 0.98 0.171l-0.020-0.006h160c1.35 0.147 2.413 1.21 2.559 2.547l0.001 0.013z" />
<glyph unicode="&#xe910;" glyph-name="hamburger" d="M192 78.72c-35.965 0-65.12 29.155-65.12 65.12s29.155 65.12 65.12 65.12v0h640c35.965 0 65.12-29.155 65.12-65.12s-29.155-65.12-65.12-65.12v0zM192 384c-0.381-0.008-0.83-0.013-1.28-0.013-35.353 0-64.013 28.66-64.013 64.013 0 34.903 27.934 63.282 62.666 63.999l0.067 0.001h642.56c0.476 0.012 1.037 0.020 1.6 0.020 36.064 0 65.3-29.236 65.3-65.3 0-35.501-28.331-64.386-63.617-65.278l-0.083-0.002h-643.2zM192 687.040c-35.965 0-65.12 29.155-65.12 65.12s29.155 65.12 65.12 65.12v0h640c35.965 0 65.12-29.155 65.12-65.12s-29.155-65.12-65.12-65.12v0h-640z" />
<glyph unicode="&#xe911;" glyph-name="minus" d="M64 427.52v0c0-49.485 40.115-89.6 89.6-89.6v0h717.44c49.485 0 89.6 40.115 89.6 89.6v0 0c0 0 0 0 0 0.001 0 49.549-40.076 89.738-89.583 89.919h-718.097c-49.247-0.543-88.96-40.591-88.96-89.915 0-0.002 0-0.004 0-0.005v0z" />
<glyph unicode="&#xe912;" glyph-name="plus" d="M512 896v0c-49.485 0-89.6-40.115-89.6-89.6v0-268.8h-269.44c-49.209-0.363-88.96-40.338-88.96-89.598 0-0.001 0-0.002 0-0.002v0c0-49.485 40.115-89.6 89.6-89.6v0h268.8v-269.44c0.363-49.209 40.338-88.96 89.598-88.96 0.001 0 0.002 0 0.002 0v0c49.485 0 89.6 40.115 89.6 89.6v268.8h269.44c49.209 0.363 88.96 40.338 88.96 89.598 0 0.001 0 0.002 0 0.002v0c0 49.485-40.115 89.6-89.6 89.6h-268.8v269.44c-0.363 49.209-40.338 88.96-89.598 88.96-0.001 0-0.002 0-0.002 0v0z" />
<glyph unicode="&#xe913;" glyph-name="star" d="M634.24 558.4h311.36l-262.72-197.44 128-331.84-298.88 224-298.24-224 126.4 331.84-262.4 197.44h310.4l123.84 329.28z" />
</font>
</defs>
</svg>
